#TITLE:Ring Ma Bell;
#SUBTITLE:Expi3nze;
#ARTIST:Two X;
#TITLETRANSLIT:;
#SUBTITLETRANSLIT:;
#ARTISTTRANSLIT:;
#CREDIT:;
#BANNER:bn.png;
#BACKGROUND:bg.png;
#LYRICSPATH:;
#CDTITLE:;
#MUSIC:RMB.mp3;
#OFFSET:-0.080;
#SAMPLESTART:61.520;
#SAMPLELENGTH:23.520;
#SELECTABLE:YES;
#BPMS:0.000=125.000,32.000=62.500,32.333=250.000,33.000=125.000,175.000=62.500,175.333=250.000,176.000=62.500,176.333=250.000,177.000=125.000,193.000=62.500,201.000=125.000;
#STOPS:;
#BGCHANGES:;
// cache tags:
#FIRSTBEAT:1.000;
#LASTBEAT:297.000;
#SONGFILENAME:Songs/SDO 7/RMB/RMB.sm;
#HASMUSIC:1;
#HASBANNER:1;
#MUSICLENGTH:147.412;
// end cache tags

//---------------dance-single - ----------------
#NOTES:
     dance-single:
     :
     Hard:
     14:
     0.994,1.000,1.000,0.617,0.397,582.000,333.000,91.000,0.000,88.000:
0000
0200
0000
0000
,
0000
0320
0000
0000
,
0000
2030
0000
0000
,
0000
3200
0000
0020
,
0000
0000
0000
0000
0302
0000
0000
0000
1000
0100
1000
0100
1030
0100
1000
0100
,
1000
0000
0000
0000
0023
0000
0000
0000
1000
0100
0001
0100
1000
0100
0001
0100
,
1000
0000
0000
0000
0032
0000
0000
0000
0010
0100
1000
0100
0010
0100
1000
0100
,
0010
0000
0000
0000
2003
0000
0000
0000
0010
0001
0010
0001
0010
0001
0010
0001
,
0020
0000
3131
0101
0011
1100
1001
0110
,
0101
1010
1100
0110
0011
1010
0001
1100
,
1101
0000
0110
1001
0110
0011
1100
1010
,
0101
0000
0101
0000
1010
0000
0000
1000
1000
0000
0110
0000
0110
0000
0101
0000
,
1110
0011
1100
0001
1100
0110
0011
0000
,
1101
0000
0000
0000
0011
0000
0000
1000
0011
0000
1010
0000
0110
0000
0000
0000
,
0111
1010
0101
1010
1100
0110
0011
0110
,
1001
0000
0000
0000
1010
0000
0000
0010
0010
0000
1100
0000
0110
0000
0011
0000
,
1011
1001
1100
0010
0101
1000
0011
0100
,
1011
1000
0110
1000
0110
0011
1100
0000
,
1110
0000
0101
1100
0110
1001
0011
0110
,
1100
0000
0011
0000
0011
0000
0000
0010
1000
0000
0101
0000
1010
0000
1100
0000
,
0111
0000
1100
0110
1001
0110
1001
0000
,
0111
0000
1100
0011
1100
0011
1100
0000
,
1110
0000
0101
1010
1100
0110
0001
1100
,
1001
0000
0000
0000
0110
0000
0000
0010
0010
0000
1001
0000
1100
0000
0110
0000
,
0111
0000
1000
0110
0011
0110
0001
0110
,
0101
1100
0010
0101
1010
1001
0010
0110
,
1001
1100
0010
0011
0110
1100
0001
1001
,
1100
1001
0110
0101
1010
0101
0110
1100
,
0110
0000
0011
0000
1100
0000
1001
0000
0110
0000
0110
0000
0011
0000
1001
0010
,
0101
0010
1001
0100
0011
0000
1010
0000
0011
0100
1001
0010
0101
0000
1001
0100
,
0011
0100
1010
0100
1001
0010
0101
0010
1100
0010
1001
0100
1001
0010
1100
0010
,
0101
1000
0101
1000
1100
0010
0011
0100
1001
0010
0101
1000
1100
0010
0101
1000
,
0111
1100
0220
0000
1331
0110
2002
0000
,
3113
1100
2200
0000
3311
0011
2020
0000
,
3232
0000
1313
0101
1100
0110
0011
1100
,
1001
0000
1100
0000
0101
0000
0000
0001
0010
0000
1100
0000
0110
0000
0011
0000
,
1110
0101
2020
0000
3131
1100
0220
0000
,
1331
0011
0220
0000
1331
0011
0202
0000
,
2323
0000
0000
0000
3131
0000
0000
0010
1100
0000
0110
0000
0011
0000
1000
0000
,
1010
0000
0101
0000
1010
0000
0000
0010
0100
0000
0110
0000
0110
0000
1001
0000
,
1101
0000
0110
0000
0010
0001
0010
0100
1001
0010
0001
0100
1001
0100
0010
0001
,
1100
0010
0001
0010
1100
0001
0010
0001
1010
0001
0010
0100
1001
0100
0010
0001
,
1100
1100
2002
0000
3113
1100
0022
0000
,
1133
0000
1001
0000
0220
0000
0000
1000
1331
0000
1100
0000
2002
0000
0000
0000
,
3223
0000
0000
0000
0331
0001
0100
0010
1001
0100
1000
0010
0101
0010
1000
0100
,
0011
0100
1000
0100
1010
0100
0010
0001
0110
1000
0100
0010
0101
1000
0100
0010
,
1101
0110
0022
0000
1133
1001
2020
0000
,
3131
0000
1100
0000
0220
0000
0000
0001
1331
0000
1100
0000
0220
0000
0000
0000
,
2332
0000
0000
0000
3013
0001
0010
0100
1000
0001
0010
1000
0100
0001
0010
0001
,
0100
0010
0001
0100
0010
0100
1000
0100
0010
0001
0010
0100
1000
0010
0001
0010
,
0001
0100
0010
0001
1100
0000
0001
0000
1100
0000
0001
0000
0101
0000
0010
0000
,
0101
0000
0010
0000
1100
0000
0001
0000
1100
0010
0001
0010
0101
0010
0100
0010
,
1001
0100
0010
0001
0110
0001
0010
0100
1001
0010
0001
0010
0101
1000
0100
0010
,
0101
1000
0100
1000
0110
0001
0010
0100
1010
0001
1010
1000
0110
0001
0010
0100
,
1101
0110
0220
0000
1031
0011
2002
0000
,
3013
1010
2010
0000
3011
0011
2020
0000
,
3002
0000
1333
0101
1100
0110
0011
1100
,
1001
0000
1100
0000
0101
0000
0000
0001
0010
0000
1100
0000
0110
0000
0011
0000
,
1110
0101
2022
0000
3130
1100
0220
0000
,
1330
1010
0220
0000
1330
0110
2200
0000
,
0320
0000
0000
0000
3133
0000
0000
0010
1100
0000
0110
0000
0011
0000
1000
0000
,
1010
0000
0101
0000
1010
0000
0000
0010
0100
0000
0110
0000
0110
0000
1001
0000
,
1001
0110
1001
0011
0110
1100
1001
0000
,
0110
0011
1010
0101
1010
1100
0110
0000
,
1110
0011
0101
1010
0011
0110
0011
0000
,
1001
0000
0110
0000
0101
0000
0000
0010
0010
0000
1100
0000
0110
0000
1100
0000
,
1101
0000
0200
0020
0302
2030
0203
3002
,
0320
2003
0032
3200
0023
2300
0032
3200
,
0023
0301
2230
0000
3311
1000
0022
0000
,
1133
0000
0110
0000
0011
0000
0000
1000
1000
0000
1010
0000
0101
0000
0010
0000
,
0100
0020
0000
0000
,
0000
0032
0000
0000
,
0000
2003
0000
0000
,
0000
3200
0000
0000
,
0000
0300
0000
0000
,
0000
0000
0000
0000
;
